osu file format v14

[General]
AudioFilename: audio.mp3
AudioLeadIn: 1500
PreviewTime: 81951
Countdown: 0
SampleSet: None
StackLeniency: 0.7
Mode: 3
LetterboxInBreaks: 0
WidescreenStoryboard: 1

[Editor]
Bookmarks: 52468
DistanceSpacing: 0.5
BeatDivisor: 4
GridSize: 16
TimelineZoom: 2.660002

[Metadata]
Title:Hell Above
TitleUnicode:Hell Above
Artist:Pierce The Veil
ArtistUnicode:Pierce The Veil
Creator:puxtu
Version:MX
Source:
Tags:pxt PTV Collide with the Sky Vic Fuentes Equal Vision Fearless Records Post-hardcore Progressive Punk Alternative Rock May These Noises Startle You In Your Sleep Tonight
BeatmapID:860975
BeatmapSetID:395630

[Difficulty]
HPDrainRate:9
CircleSize:4
OverallDifficulty:9
ApproachRate:5
SliderMultiplier:1.4
SliderTickRate:1

[Events]
//Background and Video events
0,0,"ptvcollidewiththesky.jpg",0,0
//Break Periods
//Storyboard Layer 0 (Background)
//Storyboard Layer 1 (Fail)
//Storyboard Layer 2 (Pass)
//Storyboard Layer 3 (Foreground)
//Storyboard Sound Samples

[TimingPoints]
52468,230.769230769231,4,3,1,25,1,0
81951,230.769230769231,4,3,1,25,1,0

[HitObjects]
448,192,52467,5,4,2:0:0:0:
64,192,52467,1,2,0:0:0:0:
192,192,52467,1,4,0:0:0:0:
320,192,52814,1,4,0:0:0:0:
192,192,52814,1,8,0:0:0:0:
448,192,52929,1,4,2:0:0:0:
64,192,53044,1,0,0:0:0:0:
192,192,53044,1,4,0:0:0:0:
320,192,53160,1,0,0:0:0:0:
192,192,53275,1,0,0:0:0:0:
64,192,53275,1,4,0:0:0:0:
320,192,53391,1,4,2:0:0:0:
448,192,53391,1,12,0:0:0:0:
192,192,53621,1,0,0:0:0:0:
320,192,53621,1,4,0:0:0:0:
64,192,53852,1,0,0:0:0:0:
192,192,53852,1,4,0:0:0:0:
448,192,53852,1,4,2:0:0:0:
320,192,54314,1,4,0:0:0:0:
448,192,54314,1,4,2:0:0:0:
64,192,54314,1,0,0:0:0:0:
64,192,54775,1,0,0:0:0:0:
448,192,54775,1,4,2:0:0:0:
192,192,54775,1,4,0:0:0:0:
320,192,55237,1,4,0:0:0:0:
448,192,55237,1,4,2:0:0:0:
64,192,55237,1,8,0:0:0:0:
192,192,55467,1,4,0:0:0:0:
448,192,55467,1,0,0:0:0:0:
320,192,55583,1,4,0:0:0:0:
192,192,55698,1,4,0:0:0:0:
448,192,55698,1,4,2:0:0:0:
64,192,55698,1,8,0:0:0:0:
320,192,55814,1,4,0:0:0:0:
64,192,55929,1,0,0:0:0:0:
448,192,55929,1,4,0:0:0:0:
192,192,56044,1,4,0:0:0:0:
64,192,56160,1,4,0:0:0:0:
320,192,56160,1,4,2:0:0:0:
448,192,56160,1,0,0:0:0:0:
64,192,56506,1,4,0:0:0:0:
448,192,56506,1,8,0:0:0:0:
320,192,56506,1,0,0:0:0:0:
192,192,56621,1,4,2:0:0:0:
448,192,56737,1,4,0:0:0:0:
64,192,56737,1,0,0:0:0:0:
320,192,56852,1,4,0:0:0:0:
192,192,56967,1,4,0:0:0:0:
64,192,57083,1,4,2:0:0:0:
320,192,57083,1,4,0:0:0:0:
448,192,57083,1,8,0:0:0:0:
192,192,57314,1,4,0:0:0:0:
320,192,57314,1,0,0:0:0:0:
192,192,57544,1,4,0:0:0:0:
448,192,57544,1,4,2:0:0:0:
64,192,57544,1,0,0:0:0:0:
192,192,58006,1,0,0:0:0:0:
320,192,58006,1,0,2:0:0:0:
448,192,58237,1,4,0:0:0:0:
320,192,58294,1,4,0:0:0:0:
192,192,58352,1,4,0:0:0:0:
64,192,58352,1,8,0:0:0:0:
320,192,58467,1,4,0:0:0:0:
448,192,58467,1,8,0:0:0:0:
192,192,58583,1,4,0:0:0:0:
64,192,58583,1,8,0:0:0:0:
448,192,58698,1,8,0:0:0:0:
320,192,58698,1,4,0:0:0:0:
64,192,58814,1,8,0:0:0:0:
192,192,58814,1,4,0:0:0:0:
320,192,58929,1,4,0:0:0:0:
64,192,58929,1,0,0:0:0:0:
448,192,58929,128,4,59275:0:0:0:0:
192,192,59275,128,4,59621:0:0:0:0:
320,192,59275,1,4,0:0:0:0:
64,192,59275,1,0,0:0:0:0:
64,192,59621,1,0,0:0:0:0:
320,192,59621,1,4,0:0:0:0:
448,192,59621,128,4,59852:0:0:0:0:
320,192,59852,1,4,0:0:0:0:
64,192,59852,1,2,0:0:0:0:
192,192,59852,1,4,2:0:0:0:
64,192,60314,1,0,0:0:0:0:
320,192,60314,1,4,2:0:0:0:
192,192,60775,1,8,0:0:0:0:
320,192,60775,1,4,0:0:0:0:
448,192,60775,1,4,2:0:0:0:
64,192,61006,1,4,0:0:0:0:
320,192,61006,1,0,0:0:0:0:
64,192,61237,1,4,0:0:0:0:
192,192,61237,1,4,2:0:0:0:
448,192,61237,1,0,0:0:0:0:
192,192,61698,1,0,0:0:0:0:
320,192,61698,1,4,2:0:0:0:
448,192,61698,1,4,0:0:0:0:
448,192,61814,1,4,0:0:0:0:
64,192,61814,1,0,0:0:0:0:
64,192,62160,1,4,0:0:0:0:
192,192,62160,1,4,2:0:0:0:
448,192,62160,1,0,0:0:0:0:
320,192,62275,1,0,0:0:0:0:
64,192,62275,1,4,0:0:0:0:
320,192,62621,1,8,0:0:0:0:
448,192,62621,1,4,2:0:0:0:
64,192,62621,128,4,63083:0:0:0:0:
320,192,63083,1,4,2:0:0:0:
448,192,63083,128,0,63544:0:0:0:0:
192,192,63083,1,4,0:0:0:0:
64,192,63544,1,0,0:0:0:0:
192,192,63544,1,4,0:0:0:0:
320,192,63544,1,4,2:0:0:0:
320,192,63891,1,8,0:0:0:0:
192,192,63891,1,4,0:0:0:0:
64,192,63891,1,0,0:0:0:0:
448,192,64006,1,4,2:0:0:0:
64,192,64121,1,0,0:0:0:0:
192,192,64121,1,4,0:0:0:0:
320,192,64237,1,4,0:0:0:0:
192,192,64352,1,4,0:0:0:0:
64,192,64467,1,4,2:0:0:0:
448,192,64467,1,4,0:0:0:0:
320,192,64467,1,8,0:0:0:0:
192,192,64698,1,0,0:0:0:0:
320,192,64698,1,4,0:0:0:0:
192,192,64929,1,4,2:0:0:0:
448,192,64929,1,4,0:0:0:0:
64,192,64929,1,0,0:0:0:0:
320,192,65391,1,4,0:0:0:0:
448,192,65391,1,8,0:0:0:0:
192,192,65506,1,4,0:0:0:0:
64,192,65506,1,8,0:0:0:0:
320,192,65621,1,4,0:0:0:0:
448,192,65621,1,8,0:0:0:0:
64,192,65737,1,8,0:0:0:0:
192,192,65737,1,4,0:0:0:0:
448,192,65852,1,8,0:0:0:0:
320,192,65852,1,4,0:0:0:0:
64,192,65967,1,8,0:0:0:0:
192,192,65967,1,4,0:0:0:0:
320,192,66083,1,4,0:0:0:0:
448,192,66083,1,8,0:0:0:0:
64,192,66198,1,8,0:0:0:0:
192,192,66198,1,4,0:0:0:0:
320,192,66314,1,4,0:0:0:0:
448,192,66314,1,0,0:0:0:0:
192,192,66775,1,0,0:0:0:0:
64,192,66775,128,4,67237:0:0:0:0:
192,192,67237,1,4,0:0:0:0:
320,192,67237,1,2,0:0:0:0:
448,192,67237,1,0,0:0:0:0:
64,192,67352,1,0,0:0:0:0:
320,192,67467,1,0,0:0:0:0:
64,192,67583,1,0,0:0:0:0:
192,192,67698,1,0,0:0:0:0:
448,192,67698,1,4,0:0:0:0:
64,192,67814,1,0,0:0:0:0:
320,192,67929,1,0,0:0:0:0:
448,192,68044,1,0,0:0:0:0:
64,192,68160,1,0,0:0:0:0:
192,192,68160,1,4,0:0:0:0:
320,192,68275,1,0,0:0:0:0:
448,192,68391,1,0,0:0:0:0:
192,192,68506,1,0,0:0:0:0:
320,192,68621,1,4,0:0:0:0:
64,192,68621,1,0,0:0:0:0:
448,192,68737,1,0,0:0:0:0:
192,192,68852,1,0,0:0:0:0:
320,192,68967,1,0,0:0:0:0:
64,192,69083,1,4,0:0:0:0:
448,192,69083,1,0,0:0:0:0:
192,192,69198,1,0,0:0:0:0:
320,192,69314,1,0,0:0:0:0:
448,192,69429,1,0,0:0:0:0:
192,192,69544,1,0,0:0:0:0:
64,192,69544,1,4,0:0:0:0:
320,192,69660,1,0,0:0:0:0:
448,192,69775,1,0,0:0:0:0:
192,192,69891,1,0,0:0:0:0:
320,192,70006,1,0,0:0:0:0:
64,192,70006,1,4,0:0:0:0:
448,192,70121,1,0,0:0:0:0:
192,192,70237,1,0,0:0:0:0:
64,192,70352,1,0,0:0:0:0:
448,192,70467,1,0,0:0:0:0:
320,192,70467,1,4,0:0:0:0:
192,192,70583,1,0,0:0:0:0:
64,192,70698,1,0,0:0:0:0:
320,192,70814,1,0,0:0:0:0:
192,192,70929,1,4,0:0:0:0:
448,192,70929,1,0,0:0:0:0:
64,192,71044,1,0,0:0:0:0:
320,192,71160,1,0,0:0:0:0:
192,192,71275,1,0,0:0:0:0:
448,192,71391,1,4,0:0:0:0:
64,192,71391,1,0,0:0:0:0:
320,192,71506,1,0,0:0:0:0:
192,192,71621,1,0,0:0:0:0:
64,192,71737,1,0,0:0:0:0:
320,192,71852,1,0,0:0:0:0:
448,192,71852,1,4,0:0:0:0:
192,192,71967,1,0,0:0:0:0:
320,192,72083,1,0,0:0:0:0:
64,192,72198,1,0,0:0:0:0:
448,192,72314,1,4,0:0:0:0:
192,192,72314,1,0,0:0:0:0:
64,192,72429,1,0,0:0:0:0:
320,192,72544,1,0,0:0:0:0:
448,192,72660,1,0,0:0:0:0:
192,192,72775,1,4,0:0:0:0:
64,192,72775,1,0,0:0:0:0:
320,192,72891,1,0,0:0:0:0:
448,192,73006,1,0,0:0:0:0:
192,192,73121,1,0,0:0:0:0:
64,192,73237,1,0,0:0:0:0:
320,192,73237,1,4,0:0:0:0:
448,192,73352,1,0,0:0:0:0:
192,192,73467,1,0,0:0:0:0:
320,192,73583,1,0,0:0:0:0:
448,192,73698,1,0,0:0:0:0:
64,192,73698,1,4,0:0:0:0:
192,192,73814,1,0,0:0:0:0:
320,192,73929,1,0,0:0:0:0:
448,192,73929,1,4,0:0:0:0:
64,192,74044,1,0,0:0:0:0:
192,192,74044,1,4,0:0:0:0:
448,192,74160,1,4,0:0:0:0:
320,192,74160,1,0,0:0:0:0:
192,192,74275,1,0,0:0:0:0:
64,192,74275,1,4,0:0:0:0:
448,192,74391,1,0,0:0:0:0:
320,192,74391,1,4,0:0:0:0:
192,192,74506,1,4,0:0:0:0:
64,192,74506,1,0,0:0:0:0:
448,192,74621,1,4,0:0:0:0:
320,192,74621,1,0,0:0:0:0:
64,192,74737,1,0,0:0:0:0:
192,192,74852,1,0,0:0:0:0:
64,192,74967,1,0,0:0:0:0:
320,192,75083,1,4,0:0:0:0:
448,192,75083,1,0,0:0:0:0:
192,192,75198,1,0,0:0:0:0:
64,192,75314,1,0,0:0:0:0:
320,192,75429,1,0,0:0:0:0:
448,192,75544,1,0,0:0:0:0:
192,192,75544,1,4,0:0:0:0:
64,192,75660,1,0,0:0:0:0:
320,192,75775,1,0,0:0:0:0:
192,192,75891,1,0,0:0:0:0:
64,192,76006,1,0,0:0:0:0:
448,192,76006,1,4,0:0:0:0:
320,192,76121,1,0,0:0:0:0:
192,192,76237,1,0,0:0:0:0:
64,192,76352,1,0,0:0:0:0:
448,192,76467,1,4,0:0:0:0:
320,192,76467,1,0,0:0:0:0:
64,192,76583,1,0,0:0:0:0:
320,192,76698,1,0,0:0:0:0:
192,192,76814,1,0,0:0:0:0:
64,192,76929,1,0,0:0:0:0:
448,192,76929,1,4,0:0:0:0:
320,192,77044,1,0,0:0:0:0:
192,192,77160,1,0,0:0:0:0:
448,192,77275,1,0,0:0:0:0:
64,192,77391,1,0,0:0:0:0:
192,192,77391,1,4,0:0:0:0:
320,192,77506,1,0,0:0:0:0:
448,192,77621,1,0,0:0:0:0:
192,192,77737,1,8,0:0:0:0:
64,192,77737,1,4,0:0:0:0:
320,192,77852,1,4,0:0:0:0:
448,192,77852,1,8,0:0:0:0:
192,192,77967,1,8,0:0:0:0:
64,192,77967,1,4,0:0:0:0:
320,192,78083,1,4,0:0:0:0:
448,192,78083,1,8,0:0:0:0:
192,192,78198,1,8,0:0:0:0:
64,192,78198,1,4,0:0:0:0:
448,192,78314,1,8,0:0:0:0:
320,192,78314,1,4,0:0:0:0:
192,192,81083,128,0,81948:0:0:0:0:
320,192,81544,128,0,81948:0:0:0:0:
64,192,81948,1,4,0:0:0:0:
448,192,81948,1,2,0:0:0:0:
320,192,82066,1,4,0:0:0:0:
192,192,82066,1,0,0:0:0:0:
448,192,82181,1,8,0:0:0:0:
64,192,82181,1,4,0:0:0:0:
320,192,82297,1,0,0:0:0:0:
448,192,82412,1,0,0:0:0:0:
192,192,82527,1,4,0:0:0:0:
64,192,82527,1,0,0:0:0:0:
320,192,82643,1,8,0:0:0:0:
448,192,82643,1,4,0:0:0:0:
192,192,82758,1,4,0:0:0:0:
64,192,82758,1,0,0:0:0:0:
320,192,82874,1,0,0:0:0:0:
64,192,82989,1,4,0:0:0:0:
448,192,82989,1,0,0:0:0:0:
320,192,83104,1,8,0:0:0:0:
192,192,83104,1,4,0:0:0:0:
448,192,83220,1,0,0:0:0:0:
64,192,83335,1,4,0:0:0:0:
192,192,83335,1,0,0:0:0:0:
448,192,83451,1,4,0:0:0:0:
320,192,83451,1,0,0:0:0:0:
192,192,83566,1,8,0:0:0:0:
64,192,83566,1,4,0:0:0:0:
448,192,83681,1,0,0:0:0:0:
192,192,83797,1,0,0:0:0:0:
64,192,83797,1,0,0:0:0:0:
320,192,83912,1,4,0:0:0:0:
448,192,83912,1,0,0:0:0:0:
64,192,84027,1,8,0:0:0:0:
192,192,84027,1,4,0:0:0:0:
320,192,84143,1,0,0:0:0:0:
64,192,84258,1,0,0:0:0:0:
192,192,84374,1,4,0:0:0:0:
448,192,84374,1,0,0:0:0:0:
320,192,84489,1,4,0:0:0:0:
64,192,84489,1,8,0:0:0:0:
192,192,84604,1,4,0:0:0:0:
448,192,84604,1,0,0:0:0:0:
320,192,84720,1,0,0:0:0:0:
448,192,84835,1,0,0:0:0:0:
192,192,84835,1,0,0:0:0:0:
320,192,84951,1,8,0:0:0:0:
64,192,84951,1,4,0:0:0:0:
192,192,85066,1,0,0:0:0:0:
448,192,85181,1,4,0:0:0:0:
64,192,85181,1,0,0:0:0:0:
320,192,85297,1,4,0:0:0:0:
192,192,85297,1,0,0:0:0:0:
448,192,85412,1,4,0:0:0:0:
64,192,85412,1,8,0:0:0:0:
192,192,85527,1,0,0:0:0:0:
320,192,85643,1,0,0:0:0:0:
448,192,85643,1,0,0:0:0:0:
192,192,85758,1,4,0:0:0:0:
64,192,85758,1,0,0:0:0:0:
448,192,85874,1,8,0:0:0:0:
320,192,85874,1,4,0:0:0:0:
192,192,85989,1,0,0:0:0:0:
320,192,86104,1,0,0:0:0:0:
64,192,86220,1,4,0:0:0:0:
448,192,86220,1,0,0:0:0:0:
192,192,86335,1,4,0:0:0:0:
320,192,86335,1,8,0:0:0:0:
64,192,86451,1,4,0:0:0:0:
448,192,86451,1,0,0:0:0:0:
320,192,86566,1,0,0:0:0:0:
192,192,86681,1,4,0:0:0:0:
64,192,86681,1,0,0:0:0:0:
320,192,86797,1,4,0:0:0:0:
448,192,86797,1,8,0:0:0:0:
64,192,86912,1,0,0:0:0:0:
448,192,87027,1,0,0:0:0:0:
192,192,87027,1,4,0:0:0:0:
320,192,87143,1,4,0:0:0:0:
64,192,87143,1,0,0:0:0:0:
192,192,87258,1,4,0:0:0:0:
448,192,87258,1,8,0:0:0:0:
320,192,87374,1,0,0:0:0:0:
64,192,87489,1,0,0:0:0:0:
192,192,87489,1,4,0:0:0:0:
320,192,87604,1,4,0:0:0:0:
448,192,87604,1,0,0:0:0:0:
64,192,87720,1,8,0:0:0:0:
192,192,87720,1,4,0:0:0:0:
448,192,87835,1,0,0:0:0:0:
320,192,87951,1,4,0:0:0:0:
192,192,87951,1,0,0:0:0:0:
448,192,88066,1,4,0:0:0:0:
64,192,88066,1,0,0:0:0:0:
192,192,88181,1,8,0:0:0:0:
320,192,88181,1,4,0:0:0:0:
448,192,88297,1,4,0:0:0:0:
64,192,88297,1,0,0:0:0:0:
192,192,88412,1,0,0:0:0:0:
64,192,88527,1,4,0:0:0:0:
320,192,88527,1,0,0:0:0:0:
192,192,88643,1,4,0:0:0:0:
448,192,88643,1,8,0:0:0:0:
320,192,88758,1,0,0:0:0:0:
192,192,88874,1,4,0:0:0:0:
64,192,88874,1,8,0:0:0:0:
320,192,88989,1,4,0:0:0:0:
448,192,88989,1,8,0:0:0:0:
192,192,89104,1,4,0:0:0:0:
64,192,89104,1,8,0:0:0:0:
448,192,89220,1,8,0:0:0:0:
320,192,89220,1,4,0:0:0:0:
448,192,89335,1,4,0:0:0:0:
64,192,89335,1,2,0:0:0:0:
192,192,89335,1,0,0:0:0:0:
320,192,89451,1,4,0:0:0:0:
192,192,89451,1,0,0:0:0:0:
64,192,89566,1,8,0:0:0:0:
448,192,89566,1,4,0:0:0:0:
192,192,89681,1,0,0:0:0:0:
64,192,89797,1,0,0:0:0:0:
320,192,89912,1,4,0:0:0:0:
448,192,89912,1,0,0:0:0:0:
192,192,90027,1,8,0:0:0:0:
64,192,90027,1,4,0:0:0:0:
320,192,90143,1,4,0:0:0:0:
448,192,90143,1,0,0:0:0:0:
192,192,90258,1,0,0:0:0:0:
320,192,90374,1,4,0:0:0:0:
64,192,90374,1,0,0:0:0:0:
192,192,90489,1,8,0:0:0:0:
448,192,90489,1,4,0:0:0:0:
320,192,90604,1,0,0:0:0:0:
448,192,90720,1,4,0:0:0:0:
64,192,90720,1,0,0:0:0:0:
320,192,90835,1,4,0:0:0:0:
192,192,90835,1,0,0:0:0:0:
64,192,90951,1,8,0:0:0:0:
448,192,90951,1,4,0:0:0:0:
192,192,91066,1,0,0:0:0:0:
320,192,91181,1,0,0:0:0:0:
64,192,91181,1,0,0:0:0:0:
192,192,91297,1,4,0:0:0:0:
448,192,91297,1,0,0:0:0:0:
64,192,91412,1,8,0:0:0:0:
320,192,91412,1,4,0:0:0:0:
448,192,91527,1,0,0:0:0:0:
192,192,91643,1,0,0:0:0:0:
320,192,91758,1,4,0:0:0:0:
448,192,91758,1,0,0:0:0:0:
192,192,91874,1,4,0:0:0:0:
64,192,91874,1,8,0:0:0:0:
320,192,91989,1,4,0:0:0:0:
448,192,91989,1,0,0:0:0:0:
192,192,92104,1,0,0:0:0:0:
448,192,92220,1,0,0:0:0:0:
320,192,92220,1,0,0:0:0:0:
192,192,92335,1,8,0:0:0:0:
64,192,92335,1,4,0:0:0:0:
320,192,92451,1,0,0:0:0:0:
64,192,92566,1,4,0:0:0:0:
448,192,92566,1,0,0:0:0:0:
192,192,92681,1,4,0:0:0:0:
320,192,92681,1,0,0:0:0:0:
64,192,92797,1,4,0:0:0:0:
448,192,92797,1,8,0:0:0:0:
320,192,92912,1,0,0:0:0:0:
64,192,93027,1,4,0:0:0:0:
448,192,93027,1,0,0:0:0:0:
192,192,93143,1,0,0:0:0:0:
320,192,93258,1,0,0:0:0:0:
64,192,93374,1,0,0:0:0:0:
192,192,93489,1,4,0:0:0:0:
448,192,93489,1,0,0:0:0:0:
320,192,93604,1,0,0:0:0:0:
192,192,93720,1,0,0:0:0:0:
448,192,93835,1,0,0:0:0:0:
192,192,93951,1,4,0:0:0:0:
64,192,93951,1,0,0:0:0:0:
320,192,94066,1,0,0:0:0:0:
64,192,94181,1,0,0:0:0:0:
448,192,94297,1,0,0:0:0:0:
192,192,94412,1,4,0:0:0:0:
320,192,94412,1,0,0:0:0:0:
64,192,94527,1,0,0:0:0:0:
448,192,94643,1,0,0:0:0:0:
192,192,94758,1,0,0:0:0:0:
448,192,94874,1,4,0:0:0:0:
320,192,94874,1,8,0:0:0:0:
64,192,94989,1,8,0:0:0:0:
192,192,94989,1,4,0:0:0:0:
320,192,95104,1,8,0:0:0:0:
448,192,95104,1,4,0:0:0:0:
64,192,95220,1,8,0:0:0:0:
192,192,95220,1,4,0:0:0:0:
448,192,95335,1,4,0:0:0:0:
320,192,95335,1,8,0:0:0:0:
192,192,95451,1,4,0:0:0:0:
64,192,95451,1,8,0:0:0:0:
320,192,95566,1,8,0:0:0:0:
448,192,95566,1,4,0:0:0:0:
64,192,95681,1,8,0:0:0:0:
192,192,95681,1,4,0:0:0:0:
448,192,95797,1,4,0:0:0:0:
320,192,95797,1,8,0:0:0:0:
64,192,95874,1,4,0:0:0:0:
192,192,95951,1,4,0:0:0:0:
448,192,96027,1,4,0:0:0:0:
64,192,96027,1,0,0:0:0:0:
320,192,96104,1,4,0:0:0:0:
192,192,96181,1,4,0:0:0:0:
320,192,96258,1,0,0:0:0:0:
64,192,96258,1,4,0:0:0:0:
448,192,96335,1,4,0:0:0:0:
192,192,96412,1,4,0:0:0:0:
448,192,96489,1,0,0:0:0:0:
320,192,96489,1,4,0:0:0:0:
64,192,96566,1,4,0:0:0:0:
192,192,96643,1,4,0:0:0:0:
64,192,96720,1,4,0:0:0:0:
320,192,96720,1,2,0:0:0:0:
448,192,96720,1,0,0:0:0:0:
192,192,96951,1,4,0:0:0:0:
64,192,96951,1,0,0:0:0:0:
64,192,97181,1,0,0:0:0:0:
192,192,97181,1,4,0:0:0:0:
320,192,97412,1,4,0:0:0:0:
448,192,97412,1,0,0:0:0:0:
320,192,97643,1,4,0:0:0:0:
448,192,97643,1,0,0:0:0:0:
64,192,97874,1,0,0:0:0:0:
320,192,97874,1,4,0:0:0:0:
64,192,98104,1,0,0:0:0:0:
320,192,98104,1,4,0:0:0:0:
192,192,98335,1,4,0:0:0:0:
448,192,98335,1,0,0:0:0:0:
192,192,98566,1,4,0:0:0:0:
448,192,98566,1,0,0:0:0:0:
448,192,98797,1,0,0:0:0:0:
320,192,98797,1,4,0:0:0:0:
320,192,99027,1,4,0:0:0:0:
448,192,99027,1,0,0:0:0:0:
64,192,99258,1,0,0:0:0:0:
192,192,99258,1,4,0:0:0:0:
64,192,99489,1,0,0:0:0:0:
192,192,99489,1,4,0:0:0:0:
192,192,99720,1,4,0:0:0:0:
448,192,99720,1,0,0:0:0:0:
192,192,99951,1,4,0:0:0:0:
448,192,99951,1,0,0:0:0:0:
64,192,100181,1,0,0:0:0:0:
320,192,100181,1,4,0:0:0:0:
64,192,100412,1,2,0:0:0:0:
320,192,100412,1,4,0:0:0:0:
448,192,100412,1,0,0:0:0:0:
192,192,100643,1,4,0:0:0:0:
64,192,100643,1,0,0:0:0:0:
64,192,100874,1,0,0:0:0:0:
192,192,100874,1,4,0:0:0:0:
320,192,101104,1,4,0:0:0:0:
448,192,101104,1,0,0:0:0:0:
320,192,101335,1,4,0:0:0:0:
448,192,101335,1,0,0:0:0:0:
64,192,101566,1,0,0:0:0:0:
320,192,101566,1,4,0:0:0:0:
64,192,101797,1,0,0:0:0:0:
320,192,101797,1,4,0:0:0:0:
448,192,102027,1,4,0:0:0:0:
320,192,102085,1,4,0:0:0:0:
192,192,102143,1,4,0:0:0:0:
64,192,102201,1,4,0:0:0:0:
320,192,102258,1,4,0:0:0:0:
448,192,102258,1,8,0:0:0:0:
320,192,102489,1,0,0:0:0:0:
192,192,102489,1,4,0:0:0:0:
192,192,102720,1,4,0:0:0:0:
320,192,102720,1,0,0:0:0:0:
64,192,102951,1,0,0:0:0:0:
192,192,102951,1,4,0:0:0:0:
64,192,103181,1,4,2:0:0:0:
192,192,103181,1,4,0:0:0:0:
448,192,103181,1,8,0:0:0:0:
320,192,103297,1,4,0:0:0:0:
64,192,103412,1,4,0:0:0:0:
448,192,103527,1,8,0:0:0:0:
320,192,103527,1,4,0:0:0:0:
192,192,103527,1,4,2:0:0:0:
64,192,103643,1,4,0:0:0:0:
320,192,103758,1,4,0:0:0:0:
64,192,103874,1,8,0:0:0:0:
192,192,103874,1,4,0:0:0:0:
448,192,103874,1,4,2:0:0:0:
320,192,103989,1,0,0:0:0:0:
64,192,104104,1,2,0:0:0:0:
192,192,104104,1,4,0:0:0:0:
448,192,104104,1,4,2:0:0:0:
64,192,104335,1,0,0:0:0:0:
320,192,104335,1,4,0:0:0:0:
320,192,104566,1,4,0:0:0:0:
64,192,104566,1,0,0:0:0:0:
448,192,104797,1,0,0:0:0:0:
192,192,104797,1,4,0:0:0:0:
448,192,105027,1,0,0:0:0:0:
192,192,105027,1,4,0:0:0:0:
448,192,105258,1,4,0:0:0:0:
64,192,105258,1,0,0:0:0:0:
448,192,105489,1,4,0:0:0:0:
64,192,105489,1,0,0:0:0:0:
192,192,105720,1,4,0:0:0:0:
448,192,105777,1,4,0:0:0:0:
64,192,105835,1,4,0:0:0:0:
320,192,105893,1,4,0:0:0:0:
64,192,105951,1,0,0:0:0:0:
192,192,105951,1,4,0:0:0:0:
320,192,106181,1,4,0:0:0:0:
448,192,106181,1,0,0:0:0:0:
448,192,106412,1,0,0:0:0:0:
320,192,106412,1,4,0:0:0:0:
192,192,106643,1,4,0:0:0:0:
64,192,106643,1,0,0:0:0:0:
192,192,106874,1,4,0:0:0:0:
64,192,106874,1,0,0:0:0:0:
448,192,107104,1,0,0:0:0:0:
192,192,107104,1,4,0:0:0:0:
448,192,107335,1,0,0:0:0:0:
192,192,107335,1,4,0:0:0:0:
320,192,107566,1,4,0:0:0:0:
64,192,107566,1,0,0:0:0:0:
448,192,107797,1,8,0:0:0:0:
320,192,107797,1,4,0:0:0:0:
64,192,107797,1,4,2:0:0:0:
64,192,109643,1,4,0:0:0:0:
192,192,109643,1,4,2:0:0:0:
448,192,109643,1,0,0:0:0:0:
320,192,109701,1,0,0:0:0:0:
192,192,109758,1,0,0:0:0:0:
448,192,109816,1,0,0:0:0:0:
64,192,109874,1,0,0:0:0:0:
320,192,109931,1,0,0:0:0:0:
192,192,109989,1,0,0:0:0:0:
448,192,110047,1,0,0:0:0:0:
320,192,110104,1,8,0:0:0:0:
64,192,110104,1,4,0:0:0:0:
192,192,110162,1,0,0:0:0:0:
448,192,110220,1,0,0:0:0:0:
320,192,110277,1,0,0:0:0:0:
64,192,110335,1,0,0:0:0:0:
192,192,110393,1,0,0:0:0:0:
320,192,110451,1,0,0:0:0:0:
64,192,110508,1,0,0:0:0:0:
192,192,110566,1,4,0:0:0:0:
448,192,110566,1,8,0:0:0:0:
320,192,110624,1,0,0:0:0:0:
64,192,110681,1,0,0:0:0:0:
192,192,110739,1,0,0:0:0:0:
320,192,110797,1,0,0:0:0:0:
64,192,110854,1,0,0:0:0:0:
192,192,110912,1,0,0:0:0:0:
448,192,110970,1,0,0:0:0:0:
320,192,111027,1,8,0:0:0:0:
64,192,111027,1,4,0:0:0:0:
192,192,111085,1,0,0:0:0:0:
448,192,111143,1,0,0:0:0:0:
320,192,111201,1,0,0:0:0:0:
192,192,111258,1,0,0:0:0:0:
64,192,111316,1,0,0:0:0:0:
320,192,111374,1,0,0:0:0:0:
448,192,111431,1,0,0:0:0:0:
192,192,111489,1,4,0:0:0:0:
64,192,111489,1,2,0:0:0:0:
320,192,111489,1,4,2:0:0:0:
448,192,111604,1,0,0:0:0:0:
320,192,111720,1,8,0:0:0:0:
192,192,111720,1,0,0:0:0:0:
64,192,111720,1,4,0:0:0:0:
448,192,111835,1,0,0:0:0:0:
64,192,111951,1,4,0:0:0:0:
320,192,111951,1,0,0:0:0:0:
192,192,112066,1,0,0:0:0:0:
320,192,112181,1,8,0:0:0:0:
448,192,112181,1,0,0:0:0:0:
64,192,112181,1,4,0:0:0:0:
192,192,112297,1,0,0:0:0:0:
448,192,112412,1,0,0:0:0:0:
64,192,112412,1,4,0:0:0:0:
320,192,112527,1,0,0:0:0:0:
448,192,112643,1,0,0:0:0:0:
192,192,112643,1,8,0:0:0:0:
64,192,112643,1,4,0:0:0:0:
320,192,112758,1,0,0:0:0:0:
64,192,112874,1,4,0:0:0:0:
192,192,112874,1,0,0:0:0:0:
448,192,112989,1,0,0:0:0:0:
320,192,113104,1,8,0:0:0:0:
192,192,113104,1,0,0:0:0:0:
64,192,113104,1,4,0:0:0:0:
448,192,113220,1,0,0:0:0:0:
320,192,113335,1,0,0:0:0:0:
64,192,113335,1,4,0:0:0:0:
192,192,113451,1,0,0:0:0:0:
448,192,113566,1,0,0:0:0:0:
320,192,113566,1,8,0:0:0:0:
64,192,113566,1,4,0:0:0:0:
192,192,113681,1,0,0:0:0:0:
448,192,113797,1,0,0:0:0:0:
64,192,113797,1,4,0:0:0:0:
320,192,113912,1,0,0:0:0:0:
64,192,114027,1,4,0:0:0:0:
448,192,114027,1,0,0:0:0:0:
192,192,114027,1,8,0:0:0:0:
320,192,114143,1,0,0:0:0:0:
64,192,114258,1,4,0:0:0:0:
192,192,114258,1,0,0:0:0:0:
448,192,114374,1,0,0:0:0:0:
64,192,114489,1,4,0:0:0:0:
192,192,114489,1,8,0:0:0:0:
320,192,114489,1,0,0:0:0:0:
448,192,114604,1,0,0:0:0:0:
192,192,114720,1,4,0:0:0:0:
320,192,114720,1,0,0:0:0:0:
64,192,114835,1,0,0:0:0:0:
320,192,114951,1,8,0:0:0:0:
448,192,114951,1,0,0:0:0:0:
192,192,114951,1,4,0:0:0:0:
64,192,115066,1,0,0:0:0:0:
448,192,115181,1,0,0:0:0:0:
192,192,115181,1,4,0:0:0:0:
320,192,115297,1,0,0:0:0:0:
448,192,115412,1,0,0:0:0:0:
192,192,115412,1,8,0:0:0:0:
64,192,115412,1,4,0:0:0:0:
320,192,115527,1,0,0:0:0:0:
192,192,115643,1,0,0:0:0:0:
64,192,115643,1,4,0:0:0:0:
320,192,115758,1,0,0:0:0:0:
64,192,115874,1,4,0:0:0:0:
448,192,115874,1,0,0:0:0:0:
192,192,115874,1,8,0:0:0:0:
320,192,115989,1,0,0:0:0:0:
64,192,116104,1,4,0:0:0:0:
448,192,116104,1,0,0:0:0:0:
192,192,116220,1,0,0:0:0:0:
64,192,116335,1,4,0:0:0:0:
320,192,116335,1,8,0:0:0:0:
448,192,116335,1,0,0:0:0:0:
192,192,116451,1,0,0:0:0:0:
64,192,116566,1,4,0:0:0:0:
448,192,116566,1,0,0:0:0:0:
320,192,116681,1,0,0:0:0:0:
192,192,116797,1,8,0:0:0:0:
448,192,116797,1,0,0:0:0:0:
64,192,116797,1,4,0:0:0:0:
320,192,116912,1,0,0:0:0:0:
192,192,117027,1,4,2:0:0:0:
64,192,117027,1,4,0:0:0:0:
320,192,117181,1,0,0:0:0:0:
448,192,117181,1,4,0:0:0:0:
320,192,117335,1,0,0:0:0:0:
448,192,117335,1,4,0:0:0:0:
192,192,117489,1,4,2:0:0:0:
64,192,117489,1,4,0:0:0:0:
320,192,117643,1,0,0:0:0:0:
448,192,117643,1,4,0:0:0:0:
448,192,117797,1,4,0:0:0:0:
320,192,117797,1,0,0:0:0:0:
64,192,117951,1,4,0:0:0:0:
192,192,117951,1,4,2:0:0:0:
448,192,118104,1,4,0:0:0:0:
320,192,118104,1,0,0:0:0:0:
320,192,118258,1,0,0:0:0:0:
448,192,118258,1,4,0:0:0:0:
192,192,118412,1,4,2:0:0:0:
64,192,118412,1,4,0:0:0:0:
448,192,118451,1,8,0:0:0:0:
192,192,118566,1,0,0:0:0:0:
320,192,118566,1,4,0:0:0:0:
320,192,118720,1,4,0:0:0:0:
192,192,118720,1,0,0:0:0:0:
320,192,118874,1,4,0:0:0:0:
448,192,118874,1,0,0:0:0:0:
64,192,118874,1,2,0:0:0:0:
192,192,118989,1,0,0:0:0:0:
448,192,119104,1,8,0:0:0:0:
64,192,119104,1,4,0:0:0:0:
320,192,119220,1,4,0:0:0:0:
64,192,119451,1,4,0:0:0:0:
320,192,119566,1,8,0:0:0:0:
448,192,119566,1,0,0:0:0:0:
192,192,119566,1,4,0:0:0:0:
64,192,120027,1,0,0:0:0:0:
192,192,120027,1,8,0:0:0:0:
448,192,120027,1,4,0:0:0:0:
320,192,120143,1,0,0:0:0:0:
192,192,120258,1,4,0:0:0:0:
448,192,120258,1,0,0:0:0:0:
64,192,120374,1,4,0:0:0:0:
192,192,120489,1,4,0:0:0:0:
320,192,120489,1,8,0:0:0:0:
448,192,120604,1,0,0:0:0:0:
64,192,120720,1,0,0:0:0:0:
320,192,120720,1,4,0:0:0:0:
192,192,120835,1,0,0:0:0:0:
64,192,120951,1,8,0:0:0:0:
320,192,120951,1,4,0:0:0:0:
448,192,121066,1,4,0:0:0:0:
192,192,121297,1,4,0:0:0:0:
64,192,121412,1,4,0:0:0:0:
448,192,121412,1,0,0:0:0:0:
320,192,121412,1,8,0:0:0:0:
448,192,121874,1,4,0:0:0:0:
192,192,121874,1,8,0:0:0:0:
64,192,121874,1,0,0:0:0:0:
320,192,121989,1,0,0:0:0:0:
192,192,122104,1,4,0:0:0:0:
448,192,122104,1,0,0:0:0:0:
64,192,122220,1,4,0:0:0:0:
320,192,122335,1,8,0:0:0:0:
192,192,122335,1,4,0:0:0:0:
448,192,122451,1,0,0:0:0:0:
320,192,122566,1,4,0:0:0:0:
64,192,122566,1,0,0:0:0:0:
192,192,122566,1,4,2:0:0:0:
448,192,122681,1,0,0:0:0:0:
320,192,122797,1,8,0:0:0:0:
192,192,122797,1,4,0:0:0:0:
64,192,122912,1,4,0:0:0:0:
448,192,123143,1,4,0:0:0:0:
192,192,123258,1,8,0:0:0:0:
64,192,123258,1,0,0:0:0:0:
320,192,123258,1,4,0:0:0:0:
320,192,123489,1,4,0:0:0:0:
448,192,123489,1,0,0:0:0:0:
192,192,123604,1,0,0:0:0:0:
448,192,123720,1,0,0:0:0:0:
320,192,123720,1,8,0:0:0:0:
64,192,123720,1,4,0:0:0:0:
192,192,123835,1,0,0:0:0:0:
320,192,123951,1,4,0:0:0:0:
64,192,123951,1,0,0:0:0:0:
448,192,124066,1,4,0:0:0:0:
320,192,124181,1,4,0:0:0:0:
64,192,124181,1,0,0:0:0:0:
192,192,124181,1,8,0:0:0:0:
448,192,124297,1,0,0:0:0:0:
64,192,124412,1,4,2:0:0:0:
192,192,124412,1,4,0:0:0:0:
320,192,124412,1,0,0:0:0:0:
320,192,124643,1,4,0:0:0:0:
448,192,124643,1,8,0:0:0:0:
64,192,124758,1,8,0:0:0:0:
192,192,124758,1,4,0:0:0:0:
320,192,124874,1,4,0:0:0:0:
448,192,124874,1,8,0:0:0:0:
192,192,124989,1,4,0:0:0:0:
64,192,124989,1,8,0:0:0:0:
448,192,125104,1,8,0:0:0:0:
320,192,125104,1,4,0:0:0:0:
64,192,125220,1,8,0:0:0:0:
192,192,125220,1,4,0:0:0:0:
320,192,125335,1,4,0:0:0:0:
448,192,125335,1,0,0:0:0:0:
64,192,125335,1,4,2:0:0:0:
192,192,125566,1,0,0:0:0:0:
64,192,125624,1,0,0:0:0:0:
448,192,125681,1,0,0:0:0:0:
320,192,125739,1,0,0:0:0:0:
192,192,125797,1,4,0:0:0:0:
64,192,125797,1,8,0:0:0:0:
320,192,125912,1,4,0:0:0:0:
448,192,125912,1,8,0:0:0:0:
64,192,126027,1,8,0:0:0:0:
192,192,126027,1,4,0:0:0:0:
320,192,126143,1,4,0:0:0:0:
448,192,126143,1,8,0:0:0:0:
192,192,126258,1,4,0:0:0:0:
64,192,126258,1,2,0:0:0:0:
448,192,126258,1,0,2:0:0:0:
320,192,126374,1,0,2:0:0:0:
64,192,126489,1,0,2:0:0:0:
192,192,126604,1,0,2:0:0:0:
320,192,126720,1,4,0:0:0:0:
448,192,126720,1,8,0:0:0:0:
64,192,126720,1,0,2:0:0:0:
192,192,126835,1,0,2:0:0:0:
64,192,126951,1,0,2:0:0:0:
320,192,127066,1,0,2:0:0:0:
192,192,127181,1,0,2:0:0:0:
448,192,127181,1,4,0:0:0:0:
64,192,127297,1,0,2:0:0:0:
448,192,127412,1,0,2:0:0:0:
320,192,127527,1,0,2:0:0:0:
192,192,127643,1,4,0:0:0:0:
64,192,127643,1,8,0:0:0:0:
448,192,127643,1,0,2:0:0:0:
320,192,127758,1,0,2:0:0:0:
192,192,127874,1,0,2:0:0:0:
448,192,127989,1,0,2:0:0:0:
320,192,128104,1,4,0:0:0:0:
64,192,128104,1,0,2:0:0:0:
448,192,128220,1,0,2:0:0:0:
192,192,128335,1,0,2:0:0:0:
64,192,128451,1,0,2:0:0:0:
320,192,128566,1,8,0:0:0:0:
192,192,128566,1,0,2:0:0:0:
448,192,128566,1,4,0:0:0:0:
64,192,128681,1,0,2:0:0:0:
320,192,128797,1,0,2:0:0:0:
192,192,128912,1,0,2:0:0:0:
64,192,129027,1,4,0:0:0:0:
448,192,129027,1,0,2:0:0:0:
320,192,129143,1,0,2:0:0:0:
64,192,129258,1,0,2:0:0:0:
192,192,129374,1,0,2:0:0:0:
320,192,129489,1,4,0:0:0:0:
448,192,129489,1,8,0:0:0:0:
64,192,129489,1,0,2:0:0:0:
192,192,129604,1,0,2:0:0:0:
448,192,129720,1,0,2:0:0:0:
320,192,129835,1,0,2:0:0:0:
192,192,129951,1,0,2:0:0:0:
64,192,129951,1,4,0:0:0:0:
448,192,130066,1,0,2:0:0:0:
192,192,130181,1,0,2:0:0:0:
320,192,130297,1,0,2:0:0:0:
192,192,130412,1,4,0:0:0:0:
64,192,130412,1,8,0:0:0:0:
448,192,130412,1,0,2:0:0:0:
320,192,130527,1,0,2:0:0:0:
64,192,130643,1,0,2:0:0:0:
448,192,130758,1,0,2:0:0:0:
320,192,130874,1,4,0:0:0:0:
192,192,130874,1,0,2:0:0:0:
64,192,130989,1,0,2:0:0:0:
192,192,131104,1,0,2:0:0:0:
448,192,131220,1,0,2:0:0:0:
320,192,131335,1,8,0:0:0:0:
192,192,131335,1,0,2:0:0:0:
64,192,131335,1,4,0:0:0:0:
448,192,131451,1,0,2:0:0:0:
320,192,131566,1,0,2:0:0:0:
192,192,131681,1,0,2:0:0:0:
64,192,131797,1,4,0:0:0:0:
448,192,131797,1,4,2:0:0:0:
320,192,131797,1,8,0:0:0:0:
192,192,131912,1,4,0:0:0:0:
320,192,132027,1,4,0:0:0:0:
448,192,132143,1,4,2:0:0:0:
192,192,132143,1,8,0:0:0:0:
64,192,132143,1,4,0:0:0:0:
320,192,132258,1,0,0:0:0:0:
192,192,132374,1,0,0:0:0:0:
64,192,132489,1,4,0:0:0:0:
320,192,132489,1,8,0:0:0:0:
448,192,132489,1,4,2:0:0:0:
192,192,132604,1,4,0:0:0:0:
320,192,132720,1,4,0:0:0:0:
448,192,132835,1,4,2:0:0:0:
192,192,132835,1,8,0:0:0:0:
64,192,132835,1,4,0:0:0:0:
320,192,132951,1,4,0:0:0:0:
192,192,133066,1,4,0:0:0:0:
448,192,133181,1,8,0:0:0:0:
320,192,133181,1,4,0:0:0:0:
448,192,133297,1,8,0:0:0:0:
320,192,133297,1,4,0:0:0:0:
64,192,133412,1,4,0:0:0:0:
192,192,133412,1,8,0:0:0:0:
192,192,133527,1,8,0:0:0:0:
64,192,133527,1,4,0:0:0:0:
320,192,133643,1,0,2:0:0:0:
448,192,133643,1,6,0:0:0:0:
64,192,133643,1,4,2:0:0:0:
192,192,133758,1,0,2:0:0:0:
448,192,133874,1,0,2:0:0:0:
320,192,133989,1,0,2:0:0:0:
192,192,134104,1,4,0:0:0:0:
64,192,134104,1,8,0:0:0:0:
448,192,134104,1,0,2:0:0:0:
320,192,134220,1,0,2:0:0:0:
448,192,134335,1,0,2:0:0:0:
192,192,134451,1,0,2:0:0:0:
320,192,134566,1,0,2:0:0:0:
64,192,134566,1,4,0:0:0:0:
448,192,134681,1,0,2:0:0:0:
64,192,134797,1,0,2:0:0:0:
192,192,134912,1,0,2:0:0:0:
320,192,135027,1,4,0:0:0:0:
448,192,135027,1,8,0:0:0:0:
64,192,135027,1,0,2:0:0:0:
192,192,135143,1,0,2:0:0:0:
320,192,135258,1,0,2:0:0:0:
64,192,135374,1,0,2:0:0:0:
192,192,135489,1,4,0:0:0:0:
448,192,135489,1,0,2:0:0:0:
64,192,135604,1,0,2:0:0:0:
320,192,135720,1,0,2:0:0:0:
448,192,135835,1,0,2:0:0:0:
192,192,135951,1,8,0:0:0:0:
320,192,135951,1,0,2:0:0:0:
64,192,135951,1,4,0:0:0:0:
448,192,136066,1,0,2:0:0:0:
192,192,136181,1,0,2:0:0:0:
320,192,136297,1,0,2:0:0:0:
448,192,136412,1,4,0:0:0:0:
64,192,136412,1,0,2:0:0:0:
192,192,136527,1,0,2:0:0:0:
448,192,136643,1,0,2:0:0:0:
320,192,136758,1,0,2:0:0:0:
192,192,136874,1,4,0:0:0:0:
64,192,136874,1,8,0:0:0:0:
448,192,136874,1,0,2:0:0:0:
320,192,136989,1,0,2:0:0:0:
64,192,137104,1,0,2:0:0:0:
192,192,137220,1,0,2:0:0:0:
320,192,137335,1,0,2:0:0:0:
448,192,137335,1,4,0:0:0:0:
64,192,137451,1,0,2:0:0:0:
320,192,137566,1,0,2:0:0:0:
192,192,137681,1,0,2:0:0:0:
320,192,137797,1,4,0:0:0:0:
448,192,137797,1,8,0:0:0:0:
64,192,137797,1,0,2:0:0:0:
192,192,137912,1,0,2:0:0:0:
448,192,138027,1,0,2:0:0:0:
64,192,138143,1,0,2:0:0:0:
192,192,138258,1,4,0:0:0:0:
320,192,138258,1,0,2:0:0:0:
448,192,138374,1,0,2:0:0:0:
192,192,138489,1,8,0:0:0:0:
64,192,138489,1,0,0:0:0:0:
320,192,138489,1,4,0:0:0:0:
448,192,138604,1,4,0:0:0:0:
320,192,138720,1,4,0:0:0:0:
64,192,138720,1,0,0:0:0:0:
192,192,138835,1,4,0:0:0:0:
64,192,138951,1,0,0:0:0:0:
448,192,138951,1,4,0:0:0:0:
320,192,139066,1,4,0:0:0:0:
192,192,139181,1,4,0:0:0:0:
64,192,139181,1,8,0:0:0:0:
448,192,139239,1,4,0:0:0:0:
320,192,139239,1,8,0:0:0:0:
192,192,140335,1,4,0:0:0:0:
64,192,140335,1,0,0:0:0:0:
320,192,140451,1,4,0:0:0:0:
448,192,140451,1,0,0:0:0:0:
192,192,140566,1,4,0:0:0:0:
448,192,140566,1,4,2:0:0:0:
64,192,140566,128,8,141027:0:0:0:0:
192,192,141027,1,0,2:0:0:0:
320,192,141027,1,4,0:0:0:0:
448,192,141027,1,2,0:0:0:0:
64,192,141143,1,0,2:0:0:0:
320,192,141258,1,0,2:0:0:0:
64,192,141374,1,4,0:0:0:0:
448,192,141374,1,0,2:0:0:0:
192,192,141489,1,4,0:0:0:0:
320,192,141489,1,8,0:0:0:0:
448,192,141489,1,0,0:0:0:0:
64,192,141604,1,0,2:0:0:0:
192,192,141720,1,0,2:0:0:0:
448,192,141720,1,4,0:0:0:0:
320,192,141835,1,0,2:0:0:0:
448,192,141835,1,4,0:0:0:0:
64,192,141951,1,0,2:0:0:0:
192,192,142066,1,0,2:0:0:0:
320,192,142066,1,4,0:0:0:0:
64,192,142181,1,0,0:0:0:0:
192,192,142181,1,4,0:0:0:0:
448,192,142297,1,0,2:0:0:0:
320,192,142412,1,0,2:0:0:0:
192,192,142527,1,0,2:0:0:0:
64,192,142643,1,0,0:0:0:0:
320,192,142643,1,4,0:0:0:0:
448,192,142643,1,8,0:0:0:0:
192,192,142758,1,0,2:0:0:0:
320,192,142874,1,4,0:0:0:0:
448,192,142874,1,0,0:0:0:0:
192,192,142989,1,0,2:0:0:0:
320,192,143104,1,0,2:0:0:0:
64,192,143104,1,4,0:0:0:0:
192,192,143220,1,0,0:0:0:0:
448,192,143220,1,4,0:0:0:0:
320,192,143335,1,8,0:0:0:0:
64,192,143335,1,0,0:0:0:0:
448,192,143335,1,4,0:0:0:0:
192,192,143451,1,0,2:0:0:0:
64,192,143566,1,0,2:0:0:0:
448,192,143566,1,4,0:0:0:0:
192,192,143681,1,0,0:0:0:0:
320,192,143681,1,4,0:0:0:0:
448,192,143797,1,0,2:0:0:0:
192,192,143912,1,0,2:0:0:0:
64,192,143912,1,4,0:0:0:0:
448,192,144027,1,0,2:0:0:0:
320,192,144027,1,4,0:0:0:0:
192,192,144143,1,0,2:0:0:0:
64,192,144258,1,0,2:0:0:0:
192,192,144374,1,0,2:0:0:0:
320,192,144489,1,8,0:0:0:0:
448,192,144489,1,4,0:0:0:0:
320,192,144604,1,8,0:0:0:0:
448,192,144604,1,4,0:0:0:0:
192,192,144720,1,2,0:0:0:0:
64,192,144720,1,0,0:0:0:0:
448,192,144720,1,4,0:0:0:0:
320,192,144835,1,0,2:0:0:0:
192,192,144951,1,0,2:0:0:0:
448,192,145066,1,4,0:0:0:0:
64,192,145066,1,0,2:0:0:0:
320,192,145181,1,4,0:0:0:0:
192,192,145181,1,8,0:0:0:0:
64,192,145181,1,0,0:0:0:0:
448,192,145297,1,0,2:0:0:0:
320,192,145412,1,0,2:0:0:0:
64,192,145412,1,4,0:0:0:0:
192,192,145527,1,0,2:0:0:0:
64,192,145527,1,4,0:0:0:0:
448,192,145643,1,0,2:0:0:0:
192,192,145758,1,0,2:0:0:0:
448,192,145874,1,0,0:0:0:0:
320,192,145874,1,4,0:0:0:0:
64,192,145989,1,0,2:0:0:0:
192,192,146104,1,0,2:0:0:0:
320,192,146220,1,0,2:0:0:0:
448,192,146335,1,0,0:0:0:0:
192,192,146335,1,4,0:0:0:0:
64,192,146335,1,8,0:0:0:0:
320,192,146451,1,0,2:0:0:0:
192,192,146566,1,4,0:0:0:0:
64,192,146566,1,0,0:0:0:0:
320,192,146681,1,0,2:0:0:0:
192,192,146797,1,0,2:0:0:0:
448,192,146797,1,4,0:0:0:0:
320,192,146912,1,0,0:0:0:0:
64,192,146912,1,4,0:0:0:0:
192,192,147027,1,8,0:0:0:0:
448,192,147027,1,0,0:0:0:0:
64,192,147027,1,4,0:0:0:0:
320,192,147143,1,0,2:0:0:0:
448,192,147258,1,0,2:0:0:0:
64,192,147258,1,4,0:0:0:0:
320,192,147374,1,0,0:0:0:0:
192,192,147374,1,4,0:0:0:0:
64,192,147489,1,0,2:0:0:0:
448,192,147604,1,0,2:0:0:0:
64,192,147720,1,0,2:0:0:0:
320,192,147720,1,4,0:0:0:0:
192,192,147835,1,0,2:0:0:0:
448,192,147951,1,8,0:0:0:0:
320,192,147951,1,4,0:0:0:0:
448,192,148066,1,8,0:0:0:0:
320,192,148066,1,4,0:0:0:0:
192,192,148181,1,8,0:0:0:0:
64,192,148181,1,4,0:0:0:0:
64,192,148297,1,4,0:0:0:0:
192,192,148297,1,8,0:0:0:0:
320,192,148412,1,2,0:0:0:0:
448,192,148412,1,0,0:0:0:0:
64,192,148412,1,4,0:0:0:0:
448,192,148527,1,0,2:0:0:0:
192,192,148643,1,0,2:0:0:0:
448,192,148758,1,4,0:0:0:0:
64,192,148758,1,0,2:0:0:0:
320,192,148874,1,4,0:0:0:0:
192,192,148874,1,8,0:0:0:0:
64,192,148874,1,0,0:0:0:0:
448,192,148989,1,0,2:0:0:0:
320,192,149104,1,0,2:0:0:0:
64,192,149104,1,4,0:0:0:0:
192,192,149220,1,0,2:0:0:0:
64,192,149220,1,4,0:0:0:0:
448,192,149335,1,0,2:0:0:0:
320,192,149451,1,0,2:0:0:0:
192,192,149451,1,4,0:0:0:0:
448,192,149566,1,0,0:0:0:0:
320,192,149566,1,4,0:0:0:0:
64,192,149681,1,0,2:0:0:0:
192,192,149797,1,0,2:0:0:0:
320,192,149912,1,0,2:0:0:0:
448,192,150027,1,0,0:0:0:0:
192,192,150027,1,4,0:0:0:0:
64,192,150027,1,8,0:0:0:0:
320,192,150143,1,0,2:0:0:0:
192,192,150258,1,4,0:0:0:0:
64,192,150258,1,0,0:0:0:0:
320,192,150374,1,0,2:0:0:0:
192,192,150489,1,0,2:0:0:0:
448,192,150489,1,4,0:0:0:0:
320,192,150604,1,0,0:0:0:0:
64,192,150604,1,4,0:0:0:0:
192,192,150720,1,8,0:0:0:0:
448,192,150720,1,0,0:0:0:0:
64,192,150720,1,4,0:0:0:0:
320,192,150835,1,0,2:0:0:0:
448,192,150951,1,0,2:0:0:0:
64,192,150951,1,4,0:0:0:0:
320,192,151066,1,0,0:0:0:0:
192,192,151066,1,4,0:0:0:0:
64,192,151181,1,0,2:0:0:0:
320,192,151297,1,0,2:0:0:0:
448,192,151297,1,4,0:0:0:0:
64,192,151412,1,0,2:0:0:0:
192,192,151412,1,4,0:0:0:0:
320,192,151527,1,0,2:0:0:0:
448,192,151643,1,0,2:0:0:0:
320,192,151758,1,0,2:0:0:0:
192,192,151874,1,8,0:0:0:0:
64,192,151874,1,4,0:0:0:0:
192,192,151989,1,8,0:0:0:0:
64,192,151989,1,4,0:0:0:0:
320,192,152104,1,2,0:0:0:0:
448,192,152104,1,0,0:0:0:0:
64,192,152104,1,4,0:0:0:0:
192,192,152220,1,0,2:0:0:0:
320,192,152335,1,0,2:0:0:0:
64,192,152451,1,4,0:0:0:0:
448,192,152451,1,0,2:0:0:0:
192,192,152566,1,4,0:0:0:0:
320,192,152566,1,8,0:0:0:0:
448,192,152566,1,0,0:0:0:0:
64,192,152681,1,0,2:0:0:0:
192,192,152797,1,0,2:0:0:0:
448,192,152797,1,4,0:0:0:0:
320,192,152912,1,0,2:0:0:0:
448,192,152912,1,4,0:0:0:0:
64,192,153027,1,0,2:0:0:0:
320,192,153143,1,0,2:0:0:0:
448,192,153143,1,4,0:0:0:0:
64,192,153258,1,0,0:0:0:0:
192,192,153258,1,4,0:0:0:0:
448,192,153374,1,0,2:0:0:0:
192,192,153489,1,4,0:0:0:0:
64,192,153489,1,8,0:0:0:0:
448,192,153604,1,4,0:0:0:0:
320,192,153604,1,8,0:0:0:0:
64,192,153720,1,8,0:0:0:0:
192,192,153720,1,4,0:0:0:0:
448,192,153835,1,4,0:0:0:0:
320,192,153835,1,8,0:0:0:0:
64,192,153951,1,0,2:0:0:0:
192,192,153951,1,4,0:0:0:0:
320,192,155104,1,0,0:0:0:0:
320,192,155220,1,0,0:0:0:0:
320,192,155335,128,4,155797:0:0:0:0:
64,192,155335,1,4,2:0:0:0:
448,192,155335,1,8,0:0:0:0:
192,192,155797,1,2,0:0:0:0:
64,192,155797,1,0,0:0:0:0:
448,192,155797,1,4,0:0:0:0:
320,192,155912,1,0,2:0:0:0:
192,192,156027,1,0,2:0:0:0:
448,192,156143,1,4,0:0:0:0:
64,192,156143,1,0,2:0:0:0:
320,192,156258,1,4,0:0:0:0:
192,192,156258,1,8,0:0:0:0:
64,192,156258,1,0,0:0:0:0:
448,192,156374,1,0,2:0:0:0:
320,192,156489,1,0,2:0:0:0:
64,192,156489,1,4,0:0:0:0:
192,192,156604,1,0,2:0:0:0:
64,192,156604,1,4,0:0:0:0:
448,192,156720,1,0,2:0:0:0:
320,192,156835,1,0,2:0:0:0:
192,192,156835,1,4,0:0:0:0:
448,192,156951,1,0,0:0:0:0:
320,192,156951,1,4,0:0:0:0:
64,192,157066,1,0,2:0:0:0:
192,192,157181,1,0,2:0:0:0:
320,192,157297,1,0,2:0:0:0:
448,192,157412,1,0,0:0:0:0:
192,192,157412,1,4,0:0:0:0:
64,192,157412,1,8,0:0:0:0:
320,192,157527,1,0,2:0:0:0:
192,192,157643,1,4,0:0:0:0:
64,192,157643,1,0,0:0:0:0:
320,192,157758,1,0,2:0:0:0:
192,192,157874,1,0,2:0:0:0:
448,192,157874,1,4,0:0:0:0:
320,192,157989,1,0,0:0:0:0:
64,192,157989,1,4,0:0:0:0:
192,192,158104,1,8,0:0:0:0:
448,192,158104,1,0,0:0:0:0:
64,192,158104,1,4,0:0:0:0:
320,192,158220,1,0,2:0:0:0:
448,192,158335,1,0,2:0:0:0:
64,192,158335,1,4,0:0:0:0:
320,192,158451,1,0,0:0:0:0:
192,192,158451,1,4,0:0:0:0:
64,192,158566,1,0,2:0:0:0:
320,192,158681,1,0,2:0:0:0:
448,192,158681,1,4,0:0:0:0:
64,192,158797,1,0,2:0:0:0:
192,192,158797,1,4,0:0:0:0:
320,192,158912,1,0,2:0:0:0:
448,192,159027,1,0,2:0:0:0:
320,192,159143,1,0,2:0:0:0:
192,192,159258,1,8,0:0:0:0:
64,192,159258,1,4,0:0:0:0:
192,192,159374,1,8,0:0:0:0:
64,192,159374,1,4,0:0:0:0:
320,192,159489,1,2,0:0:0:0:
448,192,159489,1,0,0:0:0:0:
64,192,159489,1,4,0:0:0:0:
192,192,159604,1,0,2:0:0:0:
320,192,159720,1,0,2:0:0:0:
64,192,159835,1,4,0:0:0:0:
448,192,159835,1,0,2:0:0:0:
192,192,159951,1,4,0:0:0:0:
320,192,159951,1,8,0:0:0:0:
448,192,159951,1,0,0:0:0:0:
64,192,160066,1,0,2:0:0:0:
192,192,160181,1,0,2:0:0:0:
448,192,160181,1,4,0:0:0:0:
320,192,160297,1,0,2:0:0:0:
448,192,160297,1,4,0:0:0:0:
64,192,160412,1,0,2:0:0:0:
320,192,160527,1,0,2:0:0:0:
448,192,160527,1,4,0:0:0:0:
64,192,160643,1,0,0:0:0:0:
192,192,160643,1,4,0:0:0:0:
448,192,160758,1,0,2:0:0:0:
320,192,160874,1,0,2:0:0:0:
192,192,160989,1,0,2:0:0:0:
64,192,161104,1,0,0:0:0:0:
320,192,161104,1,4,0:0:0:0:
448,192,161104,1,8,0:0:0:0:
192,192,161220,1,0,2:0:0:0:
320,192,161335,1,4,0:0:0:0:
448,192,161335,1,0,0:0:0:0:
192,192,161451,1,0,2:0:0:0:
320,192,161566,1,0,2:0:0:0:
64,192,161566,1,4,0:0:0:0:
192,192,161681,1,0,0:0:0:0:
448,192,161681,1,4,0:0:0:0:
320,192,161797,1,8,0:0:0:0:
64,192,161797,1,0,0:0:0:0:
448,192,161797,1,4,0:0:0:0:
192,192,161912,1,0,2:0:0:0:
64,192,162027,1,0,2:0:0:0:
448,192,162027,1,4,0:0:0:0:
192,192,162143,1,0,0:0:0:0:
320,192,162143,1,4,0:0:0:0:
448,192,162258,1,0,2:0:0:0:
64,192,162374,1,0,2:0:0:0:
448,192,162489,1,0,2:0:0:0:
192,192,162489,1,4,0:0:0:0:
320,192,162604,1,0,2:0:0:0:
64,192,162720,1,8,0:0:0:0:
192,192,162720,1,4,0:0:0:0:
64,192,162835,1,8,0:0:0:0:
192,192,162835,1,4,0:0:0:0:
320,192,162951,1,8,0:0:0:0:
448,192,162951,1,4,0:0:0:0:
448,192,163066,1,4,0:0:0:0:
320,192,163066,1,8,0:0:0:0:
192,192,163181,1,2,0:0:0:0:
64,192,163181,1,0,0:0:0:0:
448,192,163181,1,4,0:0:0:0:
64,192,163297,1,0,2:0:0:0:
320,192,163412,1,0,2:0:0:0:
64,192,163527,1,4,0:0:0:0:
448,192,163527,1,0,2:0:0:0:
192,192,163643,1,4,0:0:0:0:
320,192,163643,1,8,0:0:0:0:
448,192,163643,1,0,0:0:0:0:
64,192,163758,1,0,2:0:0:0:
192,192,163874,1,0,2:0:0:0:
448,192,163874,1,4,0:0:0:0:
320,192,163989,1,0,2:0:0:0:
448,192,163989,1,4,0:0:0:0:
64,192,164104,1,0,2:0:0:0:
192,192,164220,1,0,2:0:0:0:
320,192,164220,1,4,0:0:0:0:
64,192,164335,1,0,0:0:0:0:
192,192,164335,1,4,0:0:0:0:
448,192,164451,1,0,2:0:0:0:
320,192,164566,1,0,2:0:0:0:
192,192,164681,1,0,2:0:0:0:
64,192,164797,1,0,0:0:0:0:
320,192,164797,1,4,0:0:0:0:
448,192,164797,1,8,0:0:0:0:
192,192,164912,1,0,2:0:0:0:
320,192,165027,1,4,0:0:0:0:
448,192,165027,1,0,0:0:0:0:
192,192,165143,1,0,2:0:0:0:
320,192,165258,1,0,2:0:0:0:
64,192,165258,1,4,0:0:0:0:
192,192,165374,1,0,0:0:0:0:
448,192,165374,1,4,0:0:0:0:
320,192,165489,1,8,0:0:0:0:
64,192,165489,1,0,0:0:0:0:
448,192,165489,1,4,0:0:0:0:
192,192,165604,1,0,2:0:0:0:
64,192,165720,1,0,2:0:0:0:
448,192,165720,1,4,0:0:0:0:
192,192,165835,1,0,0:0:0:0:
320,192,165835,1,4,0:0:0:0:
448,192,165951,1,0,2:0:0:0:
320,192,166066,1,0,2:0:0:0:
64,192,166066,1,4,0:0:0:0:
448,192,166181,1,0,2:0:0:0:
192,192,166181,1,4,0:0:0:0:
320,192,166297,1,0,2:0:0:0:
192,192,166412,1,8,0:0:0:0:
64,192,166412,1,4,0:0:0:0:
64,192,166527,1,8,0:0:0:0:
192,192,166527,1,4,0:0:0:0:
320,192,166643,1,4,0:0:0:0:
448,192,166643,1,8,0:0:0:0:
320,192,166758,1,8,0:0:0:0:
448,192,166758,1,4,0:0:0:0:
192,192,166874,1,4,2:0:0:0:
64,192,166874,1,8,0:0:0:0:
448,192,166874,1,4,0:0:0:0:
192,192,167104,1,0,0:0:0:0:
448,192,167104,1,4,0:0:0:0:
64,192,167104,1,8,0:0:0:0:
320,192,167335,1,0,0:0:0:0:
448,192,167335,1,4,0:0:0:0:
64,192,167335,1,8,0:0:0:0:
64,192,167566,1,8,0:0:0:0:
320,192,167566,1,0,0:0:0:0:
448,192,167566,1,4,0:0:0:0:
64,192,167797,1,8,0:0:0:0:
320,192,167797,1,4,0:0:0:0:
192,192,167797,1,0,0:0:0:0:
320,192,168027,1,4,0:0:0:0:
192,192,168027,1,0,0:0:0:0:
64,192,168027,1,8,0:0:0:0:
320,192,168258,1,4,0:0:0:0:
448,192,168258,1,8,0:0:0:0:
192,192,168374,1,4,0:0:0:0:
64,192,168374,1,8,0:0:0:0:
448,192,168489,1,8,0:0:0:0:
320,192,168489,1,4,0:0:0:0:
192,192,168604,1,4,0:0:0:0:
64,192,168604,1,8,0:0:0:0:
64,192,168720,1,4,2:0:0:0:
320,192,168720,1,4,0:0:0:0:
448,192,168720,1,8,0:0:0:0:
192,192,168835,1,4,0:0:0:0:
448,192,168951,1,4,0:0:0:0:
320,192,169008,1,4,0:0:0:0:
192,192,169066,1,4,0:0:0:0:
64,192,169124,1,4,0:0:0:0:
320,192,169181,1,4,0:0:0:0:
448,192,169181,1,8,0:0:0:0:
192,192,169297,1,4,0:0:0:0:
64,192,169412,1,4,0:0:0:0:
448,192,169527,1,4,0:0:0:0:
320,192,169585,1,4,0:0:0:0:
192,192,169643,1,4,0:0:0:0:
64,192,169643,1,0,0:0:0:0:
448,192,169758,1,4,0:0:0:0:
64,192,169874,1,4,0:0:0:0:
192,192,169931,1,4,0:0:0:0:
320,192,169989,1,4,0:0:0:0:
64,192,170104,1,4,0:0:0:0:
448,192,170220,1,4,0:0:0:0:
192,192,170335,1,4,0:0:0:0:
64,192,170335,1,0,0:0:0:0:
320,192,170451,1,4,0:0:0:0:
64,192,170566,1,2,0:0:0:0:
192,192,170566,1,4,0:0:0:0:
448,192,170566,1,0,0:0:0:0:
320,192,170681,1,0,0:0:0:0:
192,192,170797,1,0,0:0:0:0:
448,192,170912,1,0,0:0:0:0:
320,192,171027,1,8,0:0:0:0:
64,192,171027,1,0,0:0:0:0:
192,192,171143,1,0,0:0:0:0:
448,192,171258,1,0,0:0:0:0:
64,192,171374,1,0,0:0:0:0:
192,192,171489,1,0,0:0:0:0:
320,192,171489,1,8,0:0:0:0:
448,192,171604,1,0,0:0:0:0:
192,192,171720,1,0,0:0:0:0:
320,192,171835,1,0,0:0:0:0:
448,192,171951,1,0,0:0:0:0:
64,192,171951,1,8,0:0:0:0:
192,192,172066,1,0,0:0:0:0:
320,192,172181,1,0,0:0:0:0:
192,192,172239,1,0,0:0:0:0:
64,192,172297,1,0,0:0:0:0:
448,192,172354,1,0,0:0:0:0:
320,192,172412,1,8,0:0:0:0:
192,192,172412,1,0,0:0:0:0:
64,192,172527,1,0,0:0:0:0:
448,192,172643,1,0,0:0:0:0:
192,192,172758,1,0,0:0:0:0:
320,192,172874,1,8,0:0:0:0:
64,192,172874,1,0,0:0:0:0:
448,192,172989,1,0,0:0:0:0:
192,192,173104,1,0,0:0:0:0:
320,192,173220,1,0,0:0:0:0:
64,192,173335,1,0,0:0:0:0:
192,192,173335,1,8,0:0:0:0:
448,192,173451,1,0,0:0:0:0:
192,192,173566,1,0,0:0:0:0:
320,192,173681,1,0,0:0:0:0:
192,192,173797,1,4,0:0:0:0:
64,192,173797,1,8,0:0:0:0:
448,192,173797,1,0,0:0:0:0:
320,192,173912,1,0,0:0:0:0:
64,192,174027,1,0,0:0:0:0:
192,192,174085,1,0,0:0:0:0:
320,192,174143,1,0,0:0:0:0:
448,192,174201,1,0,0:0:0:0:
192,192,174258,1,8,0:0:0:0:
64,192,174258,1,0,0:0:0:0:
320,192,174374,1,0,0:0:0:0:
64,192,174489,1,0,0:0:0:0:
448,192,174604,1,0,0:0:0:0:
192,192,174720,1,0,0:0:0:0:
320,192,174720,1,8,0:0:0:0:
64,192,174835,1,0,0:0:0:0:
448,192,174951,1,0,0:0:0:0:
320,192,175066,1,0,0:0:0:0:
192,192,175181,1,4,0:0:0:0:
64,192,175181,1,8,0:0:0:0:
448,192,175181,1,0,0:0:0:0:
320,192,175297,1,0,0:0:0:0:
192,192,175412,1,0,0:0:0:0:
448,192,175527,1,0,0:0:0:0:
320,192,175643,1,0,0:0:0:0:
192,192,175643,1,4,0:0:0:0:
64,192,175643,1,8,0:0:0:0:
448,192,175758,1,0,0:0:0:0:
64,192,175874,1,0,0:0:0:0:
320,192,175989,1,0,0:0:0:0:
192,192,176104,1,4,0:0:0:0:
64,192,176104,1,8,0:0:0:0:
448,192,176104,1,0,0:0:0:0:
320,192,176220,1,0,0:0:0:0:
192,192,176335,1,0,0:0:0:0:
320,192,176451,1,4,0:0:0:0:
448,192,176451,1,8,0:0:0:0:
64,192,176451,1,0,0:0:0:0:
192,192,176566,1,0,0:0:0:0:
320,192,176681,1,0,0:0:0:0:
192,192,176797,1,4,0:0:0:0:
64,192,176797,1,8,0:0:0:0:
64,192,176912,1,8,0:0:0:0:
192,192,176912,1,4,0:0:0:0:
320,192,177027,1,8,0:0:0:0:
448,192,177027,1,4,0:0:0:0:
64,192,177143,1,8,0:0:0:0:
192,192,177143,1,4,0:0:0:0:
320,192,177258,1,8,0:0:0:0:
448,192,177258,1,4,0:0:0:0:
192,192,177374,1,4,0:0:0:0:
64,192,177374,1,8,0:0:0:0:
448,192,177489,1,4,0:0:0:0:
320,192,177489,1,8,0:0:0:0:
320,192,177951,1,4,0:0:0:0:
448,192,177951,1,2,0:0:0:0:
64,192,177951,1,0,2:0:0:0:
192,192,178066,1,0,2:0:0:0:
448,192,178181,1,0,2:0:0:0:
320,192,178297,1,0,2:0:0:0:
192,192,178412,1,4,0:0:0:0:
64,192,178412,1,8,0:0:0:0:
448,192,178412,1,0,2:0:0:0:
320,192,178527,1,0,2:0:0:0:
448,192,178643,1,0,2:0:0:0:
192,192,178758,1,0,2:0:0:0:
320,192,178874,1,0,2:0:0:0:
64,192,178874,1,4,0:0:0:0:
448,192,178989,1,0,2:0:0:0:
64,192,179104,1,0,2:0:0:0:
192,192,179220,1,0,2:0:0:0:
320,192,179335,1,4,0:0:0:0:
448,192,179335,1,8,0:0:0:0:
64,192,179335,1,0,2:0:0:0:
192,192,179451,1,0,2:0:0:0:
320,192,179566,1,0,2:0:0:0:
64,192,179681,1,0,2:0:0:0:
192,192,179797,1,4,0:0:0:0:
448,192,179797,1,0,2:0:0:0:
64,192,179912,1,0,2:0:0:0:
320,192,180027,1,0,2:0:0:0:
448,192,180143,1,0,2:0:0:0:
192,192,180258,1,8,0:0:0:0:
320,192,180258,1,0,2:0:0:0:
64,192,180258,1,4,0:0:0:0:
448,192,180374,1,0,2:0:0:0:
192,192,180489,1,0,2:0:0:0:
320,192,180604,1,0,2:0:0:0:
448,192,180720,1,4,0:0:0:0:
64,192,180720,1,0,2:0:0:0:
192,192,180835,1,0,2:0:0:0:
448,192,180951,1,0,2:0:0:0:
320,192,181066,1,0,2:0:0:0:
192,192,181181,1,4,0:0:0:0:
64,192,181181,1,8,0:0:0:0:
448,192,181181,1,0,2:0:0:0:
320,192,181297,1,0,2:0:0:0:
64,192,181412,1,0,2:0:0:0:
192,192,181527,1,0,2:0:0:0:
320,192,181643,1,0,2:0:0:0:
448,192,181643,1,4,0:0:0:0:
64,192,181758,1,0,2:0:0:0:
320,192,181874,1,0,2:0:0:0:
192,192,181989,1,0,2:0:0:0:
320,192,182104,1,4,0:0:0:0:
448,192,182104,1,8,0:0:0:0:
64,192,182104,1,0,2:0:0:0:
192,192,182220,1,0,2:0:0:0:
448,192,182335,1,0,2:0:0:0:
64,192,182451,1,0,2:0:0:0:
192,192,182566,1,4,0:0:0:0:
320,192,182566,1,0,2:0:0:0:
448,192,182681,1,0,2:0:0:0:
320,192,182797,1,0,2:0:0:0:
64,192,182912,1,0,2:0:0:0:
192,192,183027,1,8,0:0:0:0:
320,192,183027,1,0,2:0:0:0:
448,192,183027,1,4,0:0:0:0:
64,192,183143,1,0,2:0:0:0:
192,192,183258,1,0,2:0:0:0:
320,192,183374,1,0,2:0:0:0:
448,192,183489,1,4,0:0:0:0:
64,192,183489,1,4,2:0:0:0:
192,192,183489,1,8,0:0:0:0:
320,192,183604,1,4,0:0:0:0:
192,192,183720,1,4,0:0:0:0:
64,192,183835,1,4,2:0:0:0:
320,192,183835,1,8,0:0:0:0:
448,192,183835,1,4,0:0:0:0:
192,192,183951,1,0,0:0:0:0:
320,192,184066,1,0,0:0:0:0:
448,192,184181,1,4,0:0:0:0:
192,192,184181,1,8,0:0:0:0:
64,192,184181,1,4,2:0:0:0:
320,192,184297,1,4,0:0:0:0:
192,192,184412,1,4,0:0:0:0:
64,192,184527,1,4,2:0:0:0:
320,192,184527,1,8,0:0:0:0:
448,192,184527,1,4,0:0:0:0:
192,192,184643,1,4,0:0:0:0:
320,192,184758,1,4,0:0:0:0:
64,192,184874,1,8,0:0:0:0:
192,192,184874,1,4,0:0:0:0:
64,192,184989,1,8,0:0:0:0:
192,192,184989,1,4,0:0:0:0:
448,192,185104,1,4,0:0:0:0:
320,192,185104,1,8,0:0:0:0:
320,192,185220,1,8,0:0:0:0:
448,192,185220,1,4,0:0:0:0:
192,192,185335,1,0,2:0:0:0:
64,192,185335,1,6,0:0:0:0:
448,192,185335,1,4,2:0:0:0:
320,192,185451,1,0,2:0:0:0:
64,192,185566,1,0,2:0:0:0:
192,192,185681,1,0,2:0:0:0:
320,192,185797,1,4,0:0:0:0:
448,192,185797,1,8,0:0:0:0:
64,192,185797,1,0,2:0:0:0:
192,192,185912,1,0,2:0:0:0:
64,192,186027,1,0,2:0:0:0:
320,192,186143,1,0,2:0:0:0:
192,192,186258,1,0,2:0:0:0:
448,192,186258,1,4,0:0:0:0:
64,192,186374,1,0,2:0:0:0:
448,192,186489,1,0,2:0:0:0:
320,192,186604,1,0,2:0:0:0:
192,192,186720,1,4,0:0:0:0:
64,192,186720,1,8,0:0:0:0:
448,192,186720,1,0,2:0:0:0:
320,192,186835,1,0,2:0:0:0:
192,192,186951,1,0,2:0:0:0:
448,192,187066,1,0,2:0:0:0:
320,192,187181,1,4,0:0:0:0:
64,192,187181,1,0,2:0:0:0:
448,192,187297,1,0,2:0:0:0:
192,192,187412,1,0,2:0:0:0:
64,192,187527,1,0,2:0:0:0:
320,192,187643,1,8,0:0:0:0:
192,192,187643,1,0,2:0:0:0:
448,192,187643,1,4,0:0:0:0:
64,192,187758,1,0,2:0:0:0:
320,192,187874,1,0,2:0:0:0:
192,192,187989,1,0,2:0:0:0:
64,192,188104,1,4,0:0:0:0:
448,192,188104,1,0,2:0:0:0:
320,192,188220,1,0,2:0:0:0:
64,192,188335,1,0,2:0:0:0:
192,192,188451,1,0,2:0:0:0:
320,192,188566,1,4,0:0:0:0:
448,192,188566,1,8,0:0:0:0:
64,192,188566,1,0,2:0:0:0:
192,192,188681,1,0,2:0:0:0:
448,192,188797,1,0,2:0:0:0:
320,192,188912,1,0,2:0:0:0:
192,192,189027,1,0,2:0:0:0:
64,192,189027,1,4,0:0:0:0:
448,192,189143,1,0,2:0:0:0:
192,192,189258,1,0,2:0:0:0:
320,192,189374,1,0,2:0:0:0:
192,192,189489,1,4,0:0:0:0:
64,192,189489,1,8,0:0:0:0:
448,192,189489,1,0,2:0:0:0:
320,192,189604,1,0,2:0:0:0:
64,192,189720,1,0,2:0:0:0:
448,192,189835,1,0,2:0:0:0:
320,192,189951,1,4,0:0:0:0:
192,192,189951,1,0,2:0:0:0:
64,192,190066,1,0,2:0:0:0:
448,192,190181,1,0,2:0:0:0:
64,192,190297,1,0,2:0:0:0:
320,192,190412,1,4,0:0:0:0:
448,192,190412,1,8,0:0:0:0:
192,192,190412,1,0,2:0:0:0:
64,192,190527,1,0,2:0:0:0:
192,192,190643,1,0,2:0:0:0:
320,192,190758,1,0,2:0:0:0:
448,192,190874,1,4,0:0:0:0:
64,192,190874,1,4,2:0:0:0:
192,192,190874,1,8,0:0:0:0:
320,192,190989,1,4,0:0:0:0:
192,192,191104,1,4,0:0:0:0:
64,192,191220,1,4,2:0:0:0:
320,192,191220,1,8,0:0:0:0:
448,192,191220,1,4,0:0:0:0:
192,192,191335,1,0,0:0:0:0:
320,192,191451,1,0,0:0:0:0:
448,192,191566,1,4,0:0:0:0:
192,192,191566,1,8,0:0:0:0:
64,192,191566,1,4,2:0:0:0:
320,192,191681,1,4,0:0:0:0:
192,192,191797,1,4,0:0:0:0:
64,192,191912,1,4,2:0:0:0:
320,192,191912,1,8,0:0:0:0:
448,192,191912,1,4,0:0:0:0:
192,192,192027,1,4,0:0:0:0:
320,192,192143,1,4,0:0:0:0:
192,192,192258,1,8,0:0:0:0:
448,192,192258,1,4,2:0:0:0:
64,192,192258,128,4,192720:0:0:0:0:
192,192,192720,1,4,0:0:0:0:
320,192,192720,1,2,0:0:0:0:
448,192,192720,1,4,2:0:0:0:
64,192,192835,1,0,0:0:0:0:
448,192,192951,1,0,0:0:0:0:
320,192,193066,1,0,0:0:0:0:
192,192,193181,1,4,2:0:0:0:
64,192,193181,1,0,0:0:0:0:
448,192,193297,1,0,0:0:0:0:
320,192,193412,1,0,0:0:0:0:
192,192,193527,1,0,0:0:0:0:
320,192,193643,1,4,2:0:0:0:
64,192,193643,1,4,0:0:0:0:
448,192,193643,1,8,0:0:0:0:
192,192,193758,1,0,0:0:0:0:
64,192,193874,1,0,0:0:0:0:
448,192,193989,1,0,0:0:0:0:
192,192,194104,1,4,2:0:0:0:
64,192,194104,1,0,0:0:0:0:
320,192,194220,1,0,0:0:0:0:
448,192,194335,1,0,0:0:0:0:
192,192,194335,1,4,0:0:0:0:
64,192,194451,1,0,0:0:0:0:
192,192,194566,1,4,2:0:0:0:
320,192,194566,1,4,0:0:0:0:
448,192,194566,1,0,0:0:0:0:
64,192,194681,1,0,0:0:0:0:
448,192,194797,1,0,0:0:0:0:
320,192,194912,1,0,0:0:0:0:
192,192,195027,1,4,2:0:0:0:
64,192,195027,1,0,0:0:0:0:
448,192,195143,1,0,0:0:0:0:
320,192,195258,1,0,0:0:0:0:
64,192,195374,1,0,0:0:0:0:
192,192,195489,1,4,2:0:0:0:
320,192,195489,1,4,0:0:0:0:
448,192,195489,128,8,195797:0:0:0:0:
64,192,195797,128,0,196104:0:0:0:0:
192,192,195797,1,4,2:0:0:0:
320,192,195797,1,0,0:0:0:0:
192,192,196104,1,4,2:0:0:0:
320,192,196104,128,4,196412:0:0:0:0:
448,192,196104,1,0,0:0:0:0:
448,192,196412,1,4,2:0:0:0:
64,192,196412,1,0,0:0:0:0:
192,192,196412,1,4,0:0:0:0:
320,192,196527,1,0,0:0:0:0:
64,192,196643,1,0,0:0:0:0:
448,192,196758,1,0,0:0:0:0:
192,192,196874,1,4,2:0:0:0:
320,192,196874,1,0,0:0:0:0:
64,192,196989,1,0,0:0:0:0:
320,192,197104,1,0,0:0:0:0:
448,192,197220,1,0,0:0:0:0:
192,192,197335,1,4,2:0:0:0:
320,192,197335,1,8,0:0:0:0:
64,192,197335,1,4,0:0:0:0:
448,192,197451,1,0,0:0:0:0:
64,192,197566,1,0,0:0:0:0:
320,192,197681,1,0,0:0:0:0:
192,192,197797,1,4,2:0:0:0:
64,192,197797,1,0,0:0:0:0:
448,192,197912,1,0,0:0:0:0:
320,192,198027,1,0,0:0:0:0:
64,192,198027,1,4,0:0:0:0:
192,192,198143,1,0,0:0:0:0:
320,192,198258,1,4,2:0:0:0:
64,192,198258,1,4,0:0:0:0:
448,192,198258,1,8,0:0:0:0:
192,192,198374,1,0,0:0:0:0:
320,192,198489,1,0,0:0:0:0:
192,192,198604,1,4,2:0:0:0:
448,192,198604,1,8,0:0:0:0:
64,192,198604,1,4,0:0:0:0:
320,192,198720,1,0,0:0:0:0:
64,192,198835,1,0,0:0:0:0:
320,192,198951,1,4,0:0:0:0:
448,192,198951,1,8,0:0:0:0:
192,192,199008,1,0,0:0:0:0:
64,192,199066,1,0,0:0:0:0:
448,192,199124,1,0,0:0:0:0:
320,192,199181,1,8,0:0:0:0:
192,192,199181,1,4,0:0:0:0:
64,192,199297,1,4,0:0:0:0:
448,192,199297,1,8,0:0:0:0:
320,192,199412,1,0,0:0:0:0:
192,192,199527,1,0,0:0:0:0:
320,192,199643,1,4,0:0:0:0:
448,192,199643,1,8,0:0:0:0:
64,192,199758,1,8,0:0:0:0:
192,192,199758,1,4,0:0:0:0:
448,192,199874,1,0,0:0:0:0:
320,192,199931,1,0,0:0:0:0:
192,192,199989,1,0,0:0:0:0:
64,192,200047,1,0,0:0:0:0:
320,192,200104,1,4,2:0:0:0:
448,192,200104,1,8,0:0:0:0:
192,192,200104,1,4,0:0:0:0:
64,192,200220,1,0,0:0:0:0:
448,192,200335,1,8,0:0:0:0:
192,192,200335,1,4,0:0:0:0:
320,192,200451,1,0,0:0:0:0:
64,192,200566,1,0,0:0:0:0:
320,192,200681,1,4,0:0:0:0:
448,192,200681,1,0,0:0:0:0:
192,192,200797,1,4,0:0:0:0:
64,192,200797,1,8,0:0:0:0:
448,192,200912,1,0,0:0:0:0:
320,192,201027,1,0,0:0:0:0:
448,192,201143,1,4,0:0:0:0:
64,192,201143,1,0,0:0:0:0:
320,192,201258,1,8,0:0:0:0:
192,192,201258,1,4,0:0:0:0:
64,192,201374,1,0,0:0:0:0:
448,192,201489,1,0,0:0:0:0:
320,192,201489,1,4,0:0:0:0:
192,192,201604,1,4,0:0:0:0:
64,192,201604,1,0,0:0:0:0:
320,192,201720,1,4,0:0:0:0:
448,192,201720,1,8,0:0:0:0:
192,192,201835,1,0,0:0:0:0:
448,192,201951,1,4,0:0:0:0:
64,192,201951,1,0,0:0:0:0:
320,192,202066,1,0,0:0:0:0:
192,192,202181,1,4,0:0:0:0:
448,192,202181,1,8,0:0:0:0:
64,192,202297,1,0,0:0:0:0:
448,192,202412,1,0,0:0:0:0:
192,192,202527,1,4,0:0:0:0:
64,192,202527,1,0,0:0:0:0:
320,192,202643,1,4,0:0:0:0:
448,192,202643,1,8,0:0:0:0:
64,192,202758,1,0,0:0:0:0:
192,192,202874,1,0,0:0:0:0:
64,192,202989,1,4,0:0:0:0:
320,192,202989,1,0,0:0:0:0:
192,192,203104,1,8,0:0:0:0:
448,192,203104,1,4,0:0:0:0:
320,192,203220,1,0,0:0:0:0:
64,192,203335,1,0,0:0:0:0:
192,192,203335,1,4,0:0:0:0:
320,192,203451,1,4,0:0:0:0:
448,192,203451,1,0,0:0:0:0:
192,192,203566,1,4,0:0:0:0:
64,192,203566,1,8,0:0:0:0:
320,192,203681,1,0,0:0:0:0:
64,192,203797,1,4,0:0:0:0:
448,192,203797,1,0,0:0:0:0:
192,192,203912,1,0,0:0:0:0:
320,192,204027,1,4,0:0:0:0:
64,192,204027,1,8,0:0:0:0:
192,192,204143,1,0,0:0:0:0:
448,192,204258,1,0,0:0:0:0:
320,192,204374,1,4,0:0:0:0:
64,192,204374,1,0,0:0:0:0:
192,192,204489,1,4,0:0:0:0:
448,192,204489,1,8,0:0:0:0:
64,192,204604,1,0,0:0:0:0:
320,192,204720,1,0,0:0:0:0:
64,192,204835,1,4,0:0:0:0:
192,192,204835,1,0,0:0:0:0:
448,192,204951,1,8,0:0:0:0:
320,192,204951,1,4,0:0:0:0:
64,192,205066,1,0,0:0:0:0:
448,192,205181,1,0,0:0:0:0:
192,192,205181,1,4,0:0:0:0:
320,192,205297,1,4,0:0:0:0:
64,192,205297,1,0,0:0:0:0:
192,192,205412,1,4,0:0:0:0:
448,192,205412,1,8,0:0:0:0:
320,192,205527,1,0,0:0:0:0:
448,192,205643,1,4,0:0:0:0:
64,192,205643,1,0,0:0:0:0:
192,192,205643,1,4,2:0:0:0:
320,192,205758,1,0,0:0:0:0:
192,192,205874,1,0,0:0:0:0:
320,192,205989,1,0,0:0:0:0:
64,192,206104,1,0,0:0:0:0:
192,192,206104,1,4,2:0:0:0:
448,192,206104,1,4,0:0:0:0:
320,192,206220,1,0,0:0:0:0:
64,192,206335,1,0,0:0:0:0:
448,192,206451,1,0,0:0:0:0:
320,192,206566,1,4,0:0:0:0:
192,192,206566,1,4,2:0:0:0:
64,192,206566,1,0,0:0:0:0:
448,192,206681,1,0,0:0:0:0:
64,192,206797,1,0,0:0:0:0:
320,192,206912,1,0,0:0:0:0:
64,192,207027,1,0,0:0:0:0:
192,192,207027,1,4,2:0:0:0:
448,192,207027,1,4,0:0:0:0:
320,192,207143,1,0,0:0:0:0:
192,192,207258,1,0,0:0:0:0:
448,192,207374,1,0,0:0:0:0:
320,192,207489,1,4,0:0:0:0:
64,192,207489,1,8,0:0:0:0:
192,192,207604,1,0,0:0:0:0:
64,192,207720,1,8,0:0:0:0:
448,192,207720,1,4,0:0:0:0:
320,192,207835,1,0,0:0:0:0:
64,192,207951,1,8,0:0:0:0:
192,192,207951,1,4,0:0:0:0:
448,192,208066,1,0,0:0:0:0:
320,192,208181,1,4,0:0:0:0:
64,192,208181,1,8,0:0:0:0:
192,192,208297,1,0,0:0:0:0:
64,192,208412,1,8,0:0:0:0:
448,192,208412,1,4,0:0:0:0:
320,192,208527,1,0,0:0:0:0:
192,192,208643,1,4,0:0:0:0:
64,192,208643,1,8,0:0:0:0:
448,192,208758,1,0,0:0:0:0:
64,192,208874,1,8,0:0:0:0:
320,192,208874,1,4,0:0:0:0:
192,192,208989,1,0,0:0:0:0:
448,192,209104,1,4,0:0:0:0:
64,192,209104,1,8,0:0:0:0:
320,192,209220,1,0,0:0:0:0:
192,192,209335,1,4,0:0:0:0:
64,192,209335,1,8,0:0:0:0:
320,192,209451,1,8,0:0:0:0:
448,192,209451,1,4,0:0:0:0:
64,192,209566,1,8,0:0:0:0:
192,192,209566,1,4,0:0:0:0:
320,192,209681,1,8,0:0:0:0:
448,192,209681,1,4,0:0:0:0:
192,192,209797,1,4,0:0:0:0:
64,192,209797,1,8,0:0:0:0:
320,192,209912,1,8,0:0:0:0:
448,192,209912,1,4,0:0:0:0:
192,192,210027,1,4,0:0:0:0:
64,192,210027,1,8,0:0:0:0:
448,192,210143,1,4,0:0:0:0:
320,192,210143,1,8,0:0:0:0:
192,192,210258,1,4,0:0:0:0:
64,192,210258,1,8,0:0:0:0:
320,192,210374,1,8,0:0:0:0:
448,192,210374,1,4,0:0:0:0:
64,192,210489,1,8,0:0:0:0:
192,192,210489,1,4,0:0:0:0:
320,192,210604,1,8,0:0:0:0:
448,192,210604,1,4,0:0:0:0:
192,192,210720,1,4,0:0:0:0:
64,192,210720,1,8,0:0:0:0:
320,192,210835,1,8,0:0:0:0:
448,192,210835,1,4,0:0:0:0:
192,192,210951,1,4,0:0:0:0:
64,192,210951,1,8,0:0:0:0:
448,192,211066,1,4,0:0:0:0:
320,192,211066,1,8,0:0:0:0:
64,192,211181,1,0,0:0:0:0:
192,192,211181,1,4,0:0:0:0:
320,192,211258,1,0,0:0:0:0:
448,192,211335,1,0,0:0:0:0:
192,192,211412,1,4,0:0:0:0:
320,192,211412,1,0,0:0:0:0:
64,192,211489,1,0,0:0:0:0:
192,192,211566,1,0,0:0:0:0:
320,192,211643,1,4,0:0:0:0:
448,192,211643,1,0,0:0:0:0:
192,192,211720,1,0,0:0:0:0:
64,192,211797,1,0,0:0:0:0:
320,192,211874,1,0,0:0:0:0:
192,192,211874,1,4,0:0:0:0:
448,192,211951,1,0,0:0:0:0:
320,192,212027,1,0,0:0:0:0:
64,192,212104,1,0,0:0:0:0:
192,192,212104,1,4,0:0:0:0:
320,192,212181,1,0,0:0:0:0:
448,192,212258,1,0,0:0:0:0:
192,192,212335,1,4,0:0:0:0:
320,192,212335,1,0,0:0:0:0:
64,192,212412,1,0,0:0:0:0:
192,192,212489,1,0,0:0:0:0:
320,192,212566,1,4,0:0:0:0:
448,192,212566,1,0,0:0:0:0:
192,192,212643,1,0,0:0:0:0:
64,192,212720,1,0,0:0:0:0:
320,192,212797,1,0,0:0:0:0:
192,192,212797,1,4,0:0:0:0:
448,192,212874,1,0,0:0:0:0:
320,192,212951,1,0,0:0:0:0:
64,192,213027,1,0,0:0:0:0:
192,192,213027,1,4,0:0:0:0:
448,192,213027,1,4,0:0:0:0:
320,192,213951,1,4,2:0:0:0:
192,192,213951,1,2,0:0:0:0:
64,192,214874,1,4,0:0:0:0:
320,192,214874,1,2,0:0:0:0:
448,192,214874,1,0,0:0:0:0:
